1080p Film indirFilm indirMobil Film indirTorrent Film indirTürkçe Altyazılı Film indirTürkçe Dublaj Film indir

Yırtıcı Kuşlar ve Muhteşem Harley Quinn indir (2020) 1080p Türkçe Dublaj

Yırtıcı Kuşlar ve Muhteşem Harley Quinn filmini sitemizden Türkçe dublaj indirip, izleyebilirsiniz.

Yırtıcı Kuşlar ve Muhteşem Harley Quinn indir, Gotham şehrinin koruyucuları olan Haley Quinn ve ekini bu sefer çok daha önemli bir görev için bir araya gelmiştir. Masum bir kızı kaçıran mafyaya had bildirmek için üç kişilik bir ekip oluştururlar. Bu ekip içerisinde herkesin farklı meziyetleri olması bir açıdan iyi olmasına rağmen diğer açıdan tartışmalara da yol açmaktadır. Ancak tek bir amaç vardır o da kızı sağlıklı bir şekilde kurtarmak. Mafya ise oldukça güçlüdür. Elinde her türlü silah ve adam mevcut olduğundan bu görev sanıldığı kadar da kolay olmayacaktır. Sitemizden 1080p kalitesinde Türkçe dublaj seçenekli olarak tek link torrent mobil mp4 indirip, izleyebilirsiniz. Yönetmenliğini Cathy Yan’ın yaptığı filmin oyuncu kadrosunda ise Margot Robbie, Rosie Perez, Mary Elizabeth Winstead gibi isimler yer almaktadır. Keyifli seyirler dilerken bir önce eklediğimiz Ejderhalar Kurtarıcı Ekibi Altın Ejder Avı filmine göz atarken film indir kategorimize de bakabilirsiniz.

https://www.imdb.com/title/tt7713068/ – Birds of Prey: And the Fantabulous Emancipation of One Harley Quinn

  • IMDb Puanı:  6.3
  • FILM YILI:  2020
  • FILM TÜRÜ: Aksiyon, Macera, Suç
  • OYUNCULAR: Margot Robbie, Rosie Perez, Mary Elizabeth Winstead
  • YÖNETMEN: Cathy Yan

Yırtıcı Kuşlar ve Muhteşem Harley Quinn filmi tek link
Yırtıcı Kuşlar ve Muhteşem Harley Quinn filmi tek link
Yırtıcı Kuşlar ve Muhteşem Harley Quinn 1080p tek parça
Yırtıcı Kuşlar ve Muhteşem Harley Quinn 1080p tek parça
Yırtıcı Kuşlar ve Muhteşem Harley Quinn full hd bluray
Yırtıcı Kuşlar ve Muhteşem Harley Quinn full hd bluray

DOSYA BİLGİSİ

1080p

General
Format : Matroska
Format version : Version 4
File size : 4.06 GiB
Duration : 1 h 49 min
Overall bit rate : 5 307 kb/s
Encoded date : UTC 2020-03-27 13:07:07

Video
Format : AVC
Format profile : [email protected]
Codec ID : V_MPEG4/ISO/AVC
Duration : 1 h 48 min
Bit rate : 4 553 kb/s
Width : 1 920 pixels
Height : 802 pixels
Display aspect ratio : 2.40:1
Frame rate : 23.976 (24000/1001) FPS
Bit depth : 8 bits
Scan type : Progressive
Stream size : 3.46 GiB (86%)

Audio #1
Format : E-AC3
Source : Google Play (SS)
Duration : 1 h 48 min
Bit rate : 384 kb/s
Channel(s) : 6 channels
Sampling rate : 48.0 kHz
Stream size : 299 MiB (7%)
Language : Turkish
Default : Yes

Audio #2
Format : AC-3
Source : i-Tunes (EVO)
Duration : 1 h 48 min
Bit rate : 384 kb/s
Channel(s) : 6 channels
Sampling rate : 48.0 kHz
Stream size : 299 MiB (7%)
Language : English
Default : No

Text
Format : UTF-8
Duration : 1 h 40 min
Bit rate : 44 b/s
Count of elements : 1086
Stream size : 33.5 KiB (0%)
Language : Turkish
Default : Yes
Forced : No

Yırtıcı Kuşlar ve Muhteşem Harley Quinn indir FRAGMANI

1080p –DUAL[TR-EN] – WEBDL – 4.06 GB

Turbobit, MEGA, Cloud Mail RU İndir

RAR Şifresi: indirfox.com

Etiketler

İlgili Makaleler

Bir Yorum

Bir cevap yazın

E-posta hesabınız yayımlanmayacak. Gerekli alanlar * ile işaretlenmişlerdir

Başa dön tuşu
Kapalı
Kapalı