1080p Film indirFilm indirMobil Film indirTorrent Film indirTürkçe Altyazılı Film indir

The Gentlemen indir (2019) 1080p Türkçe Altyazılı Tek Link Torrent

The Gentlemen filmini sitemizden 1080p kalitesinde Türkçe altyazılı olarak indirip, izleyebilirsiniz.

The Gentlemen indir, Pearson bugüne kadar yaptığı tüm işlerden elini eteğini çekme kararı alır ve zor şartlar altında kurup bugünlere getirdiği geniş suç imparatorluğunu terk etmek ister. Kalıcı olarak Amerika’ya dönmeye kararını vermiştir bile. Tüm işlerini devretmeye karar verdiği adamla bir yandan işlemleri yürütürken bir yandan da gözü gibi baktığı değerli arazileri diğer taliplilerden korumaktadır. Ancak bu işlemleri yürütmek bu kadar kolay değildir çünkü peşinde onun gölgesi gibi gezen bir ajan vardır. Pearson’un attığı her adımı takip edip, onun ipliğini pazara çıkarma peşindedir. Beladan sürekli sıyrılmak isterken bela bu sefer onun peşini bırakmamaktadır. The Gentlemen Türkçe Altyazılı filmini sitemizden 1080p kalitesinde torrent ve mobil indirip, izleyebilirsiniz. Yönetmenliğini Guy Ritchie’in üstlendiği yapımın oyunculuklarını ise Matthew McConaughey, Charlie Hunnam, Michelle Dockery gibi isimler yapmaktadır. Bir önce eklediğimiz Yırtıcı Kuşlar ve Muhteşem Harley Quinn filmine göz atabilir, film indir kategorimize bakabilirsiniz.

https://www.imdb.com/title/tt8367814/

  • IMDb Puanı:  8.0
  • FILM YILI:  2019
  • FILM TÜRÜ: Aksiyon, Komedi, Suç
  • OYUNCULAR: Matthew McConaughey, Charlie Hunnam, Michelle Dockery
  • YÖNETMEN: Guy Ritchie

The Gentlemen 1080p Türkçe altyazılı
The Gentlemen 1080p Türkçe altyazılı
The Gentlemen 720p hd torrent
The Gentlemen 720p hd torrent
The Gentlemen filmi tek link
The Gentlemen filmi tek link

DOSYA BİLGİSİ

1080p

Video
Format : HEVC
Format profile : Main [email protected]@Main
Duration : 1 h 53 min
Bit rate : 5 602 kb/s
Width : 1 920 pixels
Height : 800 pixels
Display aspect ratio : 2.40:1
Frame rate mode : Constant
Frame rate : 23.976 FPS
Color space : YUV
Chroma subsampling : 4:2:0
Bit depth : 10 bits
Stream size : 4.43 GiB (89%)
Language : English

Audio
Format : AC-3
Duration : 1 h 53 min
Bit rate mode : Constant
Bit rate : 640 kb/s
Channel(s) : 6 channels
Channel layout : L R C LFE Ls Rs
Sampling rate : 48.0 kHz
Stream size : 518 MiB (10%)
Language : English

The Gentlemen indir FRAGMANI

1080p –Türkçe Altyazılı – WEBDL – 4.96 GB

Turbobit, MEGA, Cloud Mail RU İndir

RAR ŞİFRESİ: indirfox.com
Etiketler
Daha Fazla Göster

İlgili Makaleler

Bir cevap yazın

E-posta hesabınız yayımlanmayacak. Gerekli alanlar * ile işaretlenmişlerdir

Başa dön tuşu
Kapalı
Kapalı