1080p Film indirFilm indirM1080p Film indirMobil Film indirTorrent Film indirTürkçe Altyazılı Film indirTürkçe Dublaj Film indir

Derin Sular indir Underwater (2020) 1080p Türkçe Altyazılı

Derin Sular indir, nam-ı diğer Underwater filmini sitemizden 1080p kalitesinde Türkçe altyazılı olarak tek link indirip, izleyebilirsiniz.

Derin Sular indir, profesyonel bir kaç kişiden oluşan denizaltı ekibi rutin kontrollerden birisini yaparken dünya üzerinde çok büyük bir deprem meydana gelir. Çalışmalarını yarıda kesip olanı biteni anlamaya çalışan ekip bir şeylerin ters gittiğinin farkına varır. Bir kaç saatlik bilinmezliğin ardından yaşadıkları şoku atlatan ekip bir an önce canlarını kurtarmanın planlarını yapmaya başlarlar. Saatlerinde değil dakikaların önemli olduğu kritik dönemece girmişlerdir bile. Ya kurtulmayı başaracaklar ya da okyanusun derin sularında denizaltının içerisinde mahsur bir şekilde yaşamlarını yitirecekler. Ellerinden gelen çabayı göstermeleri gerekiyor ancak her geçen saat aleyhlerine işleyince umutları da yavaşça sönüyor. İçlerinde ki savaşçı ruhu kaybetmemeleri gerekiyor yaşamak istiyorlarsa. Derin Sular 1080p Underwater filmini sitemizden tek link torrent ve mobil mp4 indirip, Türkçe altyazılı olarak izleyebilirsiniz. Bir önce eklediğimiz Bekar Bekir filmine göz atarak film indir kategorimize de bakabilirsiniz.

Yönetmenliğini William Eubank yaparken oyunculuklarını ise Kristen Stewart, Vincent Cassel, T.J. Miller yapmaktadır.

https://www.imdb.com/title/tt5774060/ – Underwater

  • IMDb Puanı:  5.9
  • FILM YILI:  2020
  • FILM TÜRÜ: Aksiyon, Dram, Korku
  • OYUNCULAR: Kristen Stewart, Vincent Cassel, T.J. Miller
  • YÖNETMEN: William Eubank

Derin Sular 1080p Altyazılı
Derin Sular 1080p Altyazılı
Derin Sular 720p HD Torrent
Derin Sular 720p HD Torrent
Derin Sular Filmi Tek Link
Derin Sular Filmi Tek Link

DOSYA BİLGİSİ

1080p

File size : 1.75 GiB
Duration : 1 h 34 min
Overall bit rate : 2 639 kb/s
Writing application : Lavf58.35.100

Video
ID : 1
Format : AVC
Format/Info : Advanced Video Codec
Format profile : [email protected]
Format settings : CABAC / 4 Ref Frames
Format settings, CABAC : Yes
Format settings, Reference frames : 4 frames
Codec ID : avc1
Codec ID/Info : Advanced Video Coding
Duration : 1 h 34 min
Bit rate : 2 250 kb/s
Width : 1 920 pixels
Height : 800 pixels
Display aspect ratio : 2.40:1
Frame rate mode : Constant
Frame rate : 23.976 (24000/1001) FPS
Color space : YUV
Chroma subsampling : 4:2:0
Bit depth : 8 bits
Scan type : Progressive
Bits/(Pixel*Frame) : 0.061
Stream size : 1.49 GiB (85%)
Writing library : x264 core 158
Encoding settings : cabac=1 / ref=4 / deblock=1:-1:-1 / analyse=0x3:0x133 / me=umh / subme=9 / psy=1 / psy_rd=1.00:0.15 / mixed_ref=1 / me_range=24 / chroma_me=1 / trellis=2 / 8x8dct=1 / cqm=0 / deadzone=21,11 / fast_pskip=0 / chroma_qp_offset=-3 / threads=18 / lookahead_threads=1 / sliced_threads=0 / nr=0 / decimate=1 / interlaced=0 / bluray_compat=0 / constrained_intra=0 / bframes=3 / b_pyramid=2 / b_adapt=2 / b_bias=0 / direct=3 / weightb=1 / open_gop=0 / weightp=2 / keyint=250 / keyint_min=23 / scenecut=40 / intra_refresh=0 / rc_lookahead=60 / rc=2pass / mbtree=1 / bitrate=2250 / ratetol=1.0 / qcomp=0.60 / qpmin=0 / qpmax=69 / qpstep=4 / cplxblur=20.0 / qblur=0.5 / vbv_maxrate=31250 / vbv_bufsize=31250 / nal_hrd=none / filler=0 / ip_ratio=1.40 / aq=1:1.00
Codec configuration box : avcC

Audio
ID : 2
Format : AAC LC
Format/Info : Advanced Audio Codec Low Complexity
Codec ID : mp4a-40-2
Duration : 1 h 34 min
Duration_LastFrame : -11 ms
Bit rate mode : Constant
Bit rate : 384 kb/s
Channel(s) : 6 channels
Channel layout : C L R Ls Rs LFE
Sampling rate : 48.0 kHz
Frame rate : 46.875 FPS (1024 SPF)
Compression mode : Lossy
Stream size : 261 MiB (15%)
Default : Yes
Alternate group : 1

Derin Sular indir FRAGMANI

1080p – Türkçe Altyazılı – BLURAY – 1.75 GB

Turbobit, MEGA, Cloud Mail RU İndir

RAR ŞİFRESİ: indirfox.com
Etiketler
Daha Fazla Göster

İlgili Makaleler

Bir cevap yazın

E-posta hesabınız yayımlanmayacak. Gerekli alanlar * ile işaretlenmişlerdir

Başa dön tuşu
Kapalı
Kapalı